布拉德·皮特新片 2022《子弹列车》WEB-4K&1080 YYDS内封等多版本 简中字幕【22.5GB】

睡萌鹿 (盘主) 2022-09-28 709
这个人很懒,什么都没有留下!

片  名: 子弹列车4k
导  演: 大卫·雷奇
电影分类: 动作 惊悚 喜剧
国  家: 美国 日本
年  代: 2022年
分 辨 率: 4K(3840x2160)
画质标准: HDR10
音质编码: Dolby Digital Plus Audio
电影声道: 5.1声道
帧数/FPS: 23.976 帧
剧情简介: 在东京前往盛冈一趟疾驰的列车上,有五名杀手,他们发现各自的任务其实有着关联。于是问题变成了:谁能活着下车?终点站又有什么在等待着他们?

版本来源
Bullet.Train.2022.2160p.WEB-DL.x265.10bit.HDR.DDP5.1【HDR 22.51 GB】
子弹列车2022
链接:

该网盘链接需要登录后才能查看,请先[登录]




General
Unique ID : 124461459548358567754061104693044459457 (0x5DA267BA4FA71D816060BB3AA1EE37C1)
Complete name : D:\影视\子弹列车 WEB-4K\Bullet.Train.2022.2160p.WEB-DL.x265.10bit.HDR.DDP5.1.mkv
Format : Matroska
Format version : Version 4
File size : 22.5 GiB
Duration : 2 h 6 min
Overall bit rate : 25.4 Mb/s
Encoded date : UTC 2022-09-27 05:21:31
Writing application : mkvmerge v69.0.0 ('Day And Age') 64-bit
Writing library : libebml v1.4.2 + libmatroska v1.6.4

Video
ID : 1
Format : HEVC
Format/Info : High Efficiency Video Coding
Format profile : Main 10@L5@High
HDR format : SMPTE ST 2086, HDR10 compatible
Codec ID : V_MPEGH/ISO/HEVC
Duration : 2 h 6 min
Bit rate : 24.8 Mb/s
Width : 3 840 pixels
Height : 1 584 pixels
Display aspect ratio : 2.40:1
Frame rate mode : Constant
Frame rate : 23.976 FPS
Color space : YUV
Chroma subsampling : 4:2:0 (Type 2)
Bit depth : 10 bits
Bits/(Pixel*Frame) : 0.170
Stream size : 21.9 GiB (97%)
Language : English
Default : Yes
Forced : No
Color range : Limited
Color primaries : BT.2020
Transfer characteristics : PQ
Matrix coefficients : BT.2020 non-constant
Mastering display color primar : BT.2020
Mastering display luminance : min: 0.0050 cd/m2, max: 1000 cd/m2
Maximum Content Light Level : 737 cd/m2
Maximum Frame-Average Light Le : 398 cd/m2

Audio
ID : 2
Format : E-AC-3
Format/Info : Enhanced AC-3
Commercial name : Dolby Digital Plus
Codec ID : A_EAC3
Duration : 2 h 6 min
Bit rate mode : Constant
Bit rate : 640 kb/s
Channel(s) : 6 channels
Channel layout : L R C LFE Ls Rs
Sampling rate : 48.0 kHz
Frame rate : 31.250 FPS (1536 SPF)
Compression mode : Lossy
Stream size : 580 MiB (3%)
Language : English
Service kind : Complete Main
Default : No
Forced : No

Text #1
ID : 3
Format : ASS
Codec ID : S_TEXT/ASS
Codec ID/Info : Advanced Sub Station Alpha
Duration : 1 h 58 min
Bit rate : 82 b/s
Count of elements : 1601
Compression mode : Lossless
Stream size : 72.1 KiB (0%)
Default : Yes
Forced : No

Text #2
ID : 4
Format : PGS
Codec ID : S_HDMV/PGS
Codec ID/Info : Picture based subtitle format used on BDs/HD-DVDs
Duration : 2 h 5 min
Bit rate : 21.6 kb/s
Count of elements : 3202
Stream size : 19.4 MiB (0%)
Default : Yes
Forced : No

Menu
02:06:36.000 : en:Credits

⚠️tip:如果链接失效怎么办?善用本站搜索!

本帖子由用户自发分享,不代表本站观点。请注意甄别内容中的联系方式、诱导购买等信息,谨防诈骗。如发现有害或侵权内容,请点击一键举报。
最新回复 (46)

微信扫一扫
关注该公众号

首页

发现

发布

有求

我的